Loading...

BalkanHarbor

Torrent file-share

Torrent detail

Scare PewDiePie LEVEL ONE LET'S PLAY DOCTOR S01E01


Format : MPEG-4
Format profile : Base Media
Codec ID : isom
File size : 474 MiB
Duration : 23mn 14s
Overall bit rate mode : Variable
Overall bit rate : 2 851 Kbps
Writing application : Lavf54.63.104

Video
ID : 1
Format : MPEG-4 Visual
Format profile : [email protected]
Format settings, BVOP : No
Format settings, QPel : No
Format settings, GMC : No warppoints
Format settings, Matrix : Default (H.263)
Codec ID : 20
Duration : 23mn 14s
Bit rate mode : Constant
Bit rate : 2 718 Kbps
Width : 640 pixels
Height : 359 pixels
Display aspect ratio : 16:9
Frame rate mode : Constant
Frame rate : 29.000 fps
Color space : YUV
Chroma subsampling : 4:2:0
Bit depth : 8 bits
Scan type : Progressive
Compression mode : Lossy
Bits/(Pixel*Frame) : 0.408
Stream size : 452 MiB (95%)
Writing library : Lavc54.92.100

Audio
ID : 2
Format : AAC
Format/Info : Advanced Audio Codec
Format profile : LC
Codec ID : 40
Duration : 23mn 14s
Bit rate mode : Variable
Bit rate : 128 Kbps
Channel(s) : 2 channels
Channel positions : Front: L R
Sampling rate : 44.1 KHz
Compression mode : Lossy
Stream size : 21.1 MiB (4%)

Torrent name: Scare PewDiePie LEVEL ONE LET'S PLAY DOCTOR S01E01
File size: 473.86 MB
Seeds: 549
Leechs: 43
Categories: Series
Uploader: eMp
    - udp://tracker.coppersurfer.tk:6969/announce
    - udp://tracker.openbittorrent.com:80/announce
    - udp://glotorrents.pw:6969/announce
    - udp://tracker.publicbt.com:80/announce
    - udp://tracker.ccc.de:80/announce
Download Scare PewDiePie LEVEL ONE LET'S PLAY DOCTOR S01E01
Download .torrent
Stats

Total Members: 223 | Total Torrents: 582 | Total Peers: 5