Loading...

BalkanHarbor

Torrent file-share

Torrent detail

Scare PewDiePie (s01e02) LEVEL TWO WE'RE NOT ALONE - YouTube Red [MP4].mp4

Format : MPEG-4
Format profile : Base Media / Version 2
Codec ID : mp42
File size : 329 MiB
Duration : 18mn 33s
Overall bit rate mode : Variable
Overall bit rate : 2 481 Kbps
Encoded date : UTC 2016-02-11 09:07:16
Tagged date : UTC 2016-02-11 09:07:16
gsst : 0
gstd : 1113303

Video
ID : 1
Format : AVC
Format/Info : Advanced Video Codec
Format profile : [email protected]
Format settings, CABAC : Yes
Format settings, ReFrames : 1 frame
Codec ID : avc1
Codec ID/Info : Advanced Video Coding
Duration : 18mn 33s
Bit rate : 2 287 Kbps
Maximum bit rate : 6 276 Kbps
Width : 1 280 pixels
Height : 720 pixels
Display aspect ratio : 16:9
Frame rate mode : Constant
Frame rate : 29.970 fps
Color space : YUV
Chroma subsampling : 4:2:0
Bit depth : 8 bits
Scan type : Progressive
Bits/(Pixel*Frame) : 0.083
Stream size : 303 MiB (92%)
Tagged date : UTC 2016-02-11 09:07:46

Audio
ID : 2
Format : AAC
Format/Info : Advanced Audio Codec
Format profile : LC
Codec ID : 40
Duration : 18mn 33s
Bit rate mode : Variable
Bit rate : 192 Kbps
Maximum bit rate : 202 Kbps
Channel(s) : 2 channels
Channel positions : Front: L R
Sampling rate : 44.1 KHz
Compression mode : Lossy
Stream size : 25.5 MiB (8%)
Title : IsoMedia File Produced by Google, 5-11-2011
Language : English
Encoded date : UTC 2016-02-11 09:07:33
Tagged date : UTC 2016-02-11 09:07:46

Torrent name: Scare PewDiePie (s01e02) LEVEL TWO WE'RE NOT ALONE - YouTube Red [MP4].mp4
File size: 329.28 MB
Seeds: 648
Leechs: 72
Categories: Series
Uploader: eMp
    - udp://tracker.coppersurfer.tk:6969/announce
    - udp://tracker.openbittorrent.com:80/announce
    - udp://glotorrents.pw:6969/announce
    - udp://tracker.publicbt.com:80/announce
    - udp://tracker.ccc.de:80/announce
Download Scare PewDiePie (s01e02) LEVEL TWO WE'RE NOT ALONE - YouTube Red [MP4].mp4
Download .torrent
Stats

Total Members: 4673 | Total Torrents: 582 | Total Peers: 2